主站:www.xiaohx.org 分享朋友→
电视直播

历史浏览记录

当前位置:主页 > 电视剧 > 港台

30集全[光影久久][1980]ATV【太极张三丰】DVD-MKV 双语无字 30集全【14.84G】

发布时间:2015-04-13 16:33:00  | 更新时间:2015-04-13 16:40:00

小浣熊 · 下载站(最新地址:www.xiaohx.org)
浏览:  次

名称:30集全[光影久久][1980]ATV【太极张三丰】DVD-MKV 双语无字 30集全【14.84G】
分类:电视剧 - 港台
地区:香港
语言:粤语
发行年代:1980年
发布时间:2015年04月13日
更新时间:2015年04月13日

下载

温馨提示:如果影片没有字幕,您可以尝试下载安装射手影音(360软件宝库)播放器,播放器将自动匹配下载字幕^_^。

全选
反选
下载选中文件
共选中 个下载

介绍

30集全[光影久久][1980]ATV《太极张三丰》DVD-MKV 双语无字 30集全【14.84G】
【1980年】ATV《太极张三丰》DVD-MKV 双语无字【国/粤语】 30集全【14.84G】BT磁力(迅雷或115离线;音轨2是粤语,片头是光影久久的水印):
magnet:?xt=urn:btih:845304fc6f1684002108dfa69a0586a3eb0e0b48&xl=15934731631百度网盘:(删去视频文件的扩展名“1” , 即可正常播放)
http://yun.baidu.com/s/1sjlxeJbhttp://zh.wikipedia.org/wiki/%E5%A4%AA%E6%A5%B5%E5%BC%B5%E4%B8%89%E8%B1%90_(%E9%9B%BB%E8%A6%96%E5%8A%87)《太极张三丰》,1980年香港丽的电视(RTV)武侠剧,共30集。1980年12月15日首播。由于播出时较受欢迎,丽的电视于次年推出该剧续集《游侠张三丰》。丽的电视的“张三丰”系列,为演员万梓良早期代表作之一。
剧情:太极拳创始人张君宝,原是少林寺一名僧人。后听从师叔空明劝告,还俗下山拜师学艺。
张君宝下山后,结识豆腐贩子常遇春,又拜武师陶石麟为师。君宝与陶石麟之女陶彩衣一往情深。暗恋彩衣已久的霍都王子怀恨在心,处心积虑加害君宝。
陶石麟临死时,说出了彩衣身世。原来彩衣乃也先王爷之女,原名金丽妮。随后,君宝巧遇相貌与彩衣几乎一模一样,同是也先王爷之女的郡主。很快,也先王爷父女相认,但郡主追求君宝不成,遂妒忌姐姐。
此时正值元朝末年,蒙古统治残暴不仁。常遇春和农民出身的朱元璋投入明教,预备起事。为对付明教,皇帝下令屠杀五姓汉人。也先王爷力争保护汉人,奈何霍都势力太大,而且霍都手下哈赤儿武功深不可测,难以对付。
在空明帮助下,君宝领悟了“以柔制刚”的秘诀。金美妮因爱成恨,利用哈赤儿对付君宝,又设计陷害彩衣。哈赤儿错将彩衣当作郡主奸污,随后又杀死空明。彩衣万念俱灰,自戕而死。君宝忍无可忍,与哈赤儿决斗,终于击毙恶徒。金美妮仍未得到君宝的爱,难耐寂寞下投海而死。
失去彩衣的君宝心灰意冷,告别了众人,隐居于武当山,改名张三豐(张三丰),成为一代宗师。演员表
万梓良 饰 张君宝
米 雪 饰 陶彩衣(金丽妮)/金美妮
曹达华 饰 空明和尚
杨泽霖 饰 霍都王子
罗 烈 饰 哈赤儿
刘国诚 饰 常遇春
罗乐林 饰 朱元璋
吴 回 饰 陶石麟
鲍汉琳 饰 也先王爷
高 雄 饰 济深和尚
周慧娟 饰 周若
麦天恩 饰 高米拉
蒋 金 饰 皇帝
30集全[光影久久][1980]ATV《太极张三丰》DVD-MKV 双语无字 30集全【14.84G】30集全[光影久久][1980]ATV《太极张三丰》DVD-MKV 双语无字 30集全【14.84G】

代码
General
Unique ID               : 193976715402319357546810486422542452075 (0x91EE8E74DD7AD82398A1A7669653856B)
Complete name             : 【1980年】ATV《太极张三丰》DVD-MKV 双语无字 30集全\【光影久久】太极张三丰.1980.X264.AC3.双语无字.EP01.mkv
Format                 : Matroska
Format version             : Version 1
File size               : 466 MiB
Duration                 : 36mn 31s
Overall bit rate           : 1 784 Kbps
Encoded date             : UTC 2011-07-03 09:11:50
Writing application         : mkvmerge v2.2.0 ('Turn It On Again') built on Mar 4 2008 12:58:26
Writing library           : libebml v0.7.7 + libmatroska v0.8.1
Attachment               : YesVideo
ID                     : 1
Format                 : AVC
Format/Info               : Advanced Video Codec
Format profile             : High@L3.0
Format settings, CABAC       : Yes
Format settings, ReFrames     : 5 frames
Codec ID                 : V_MPEG4/ISO/AVC
Duration                 : 36mn 31s
Bit rate                 : 1 000 Kbps
Width                   : 608 pixels
Height                 : 480 pixels
Display aspect ratio         : 5:4
Frame rate mode           : Constant
Frame rate               : 29.970 fps
Color space               : YUV
Chroma subsampling         : 4:2:0
Bit depth               : 8 bits
Scan type               : Progressive
Bits/(Pixel*Frame)         : 0.114
Stream size               : 256 MiB (55%)
Writing library           : x264 core 60 r951 445d87e
Encoding settings           : cabac=1 / ref=5 / deblock=1:-2:-1 / analyse=0x3:0x113 / me=umh / subme=6 / brdo=1 / mixed_ref=1 / me_range=16 / chroma_me=1 / trellis=1 / 8x8dct=1 / cqm=0 / deadzone=21,11 / chroma_qp_offset=0 / threads=6 / nr=0 / decimate=1 / mbaff=0 / bframes=16 / b_pyramid=1 / b_adapt=1 / b_bias=0 / direct=3 / wpredb=1 / bime=1 / keyint=120 / keyint_min=25 / scenecut=40(pre) / rc=2pass / bitrate=1000 / ratetol=1.0 / rceq='blurCplx^(1-qComp)' / qcomp=1.00 / qpmin=10 / qpmax=51 / qpstep=4 / cplxblur=20.0 / qblur=0.5 / ip_ratio=1.40 / pb_ratio=1.30 / aq=2:1.00
Default                 : Yes
Forced                 : NoAudio #1
ID                     : 2
Format                 : AC-3
Format/Info               : Audio Coding 3
Mode extension             : CM (complete main)
Format settings, Endianness   : Big
Codec ID                 : A_AC3
Duration                 : 36mn 31s
Bit rate mode             : Constant
Bit rate                 : 384 Kbps
Channel(s)               : 6 channels
Channel positions           : Front: L C R, Side: L R, LFE
Sampling rate             : 48.0 KHz
Bit depth               : 16 bits
Compression mode           : Lossy
Stream size               : 100 MiB (22%)
Default                 : Yes
Forced                 : NoAudio #2
ID                     : 3
Format                 : AC-3
Format/Info               : Audio Coding 3
Mode extension             : CM (complete main)
Format settings, Endianness   : Big
Codec ID                 : A_AC3
Duration                 : 36mn 31s
Bit rate mode             : Constant
Bit rate                 : 384 Kbps
Channel(s)               : 6 channels
Channel positions           : Front: L C R, Side: L R, LFE
Sampling rate             : 48.0 KHz
Bit depth               : 16 bits
Compression mode           : Lossy
Stream size               : 100 MiB (22%)
Default                 : No
Forced                 : No

热门电视剧  ·  本周排行榜