主站:www.xiaohx.org 分享朋友→
电视直播

历史浏览记录

当前位置:主页 > 电影 > 其它

掠夺者 Grabbers.(2012).BDRip.1080p

发布时间:2012-12-04 08:57:00  | 更新时间:2012-12-04 09:21:00

小浣熊 · 下载站(最新地址:www.xiaohx.org)
浏览:  次
简介: 译 名 掠夺者 | 片 名 Grabbers | 年 代 2012 | 国 家 英国/爱尔兰 | 类 别 喜剧/科幻/惊悚 | 语 言 英语 | 字 幕 N/A | IMDB评分 6.2/10 1643 | IMDB链接 http://www.imdb.com/title/tt1525366/ | 文件格式 X264 + DTS | 视频尺寸 1920 x 816 | 文件大小 5.65 GB | 片 长 93 Mins | 导 演 乔·怀特 Jon Wright | 主 演 | 理查德·柯伊尔 Richard Coyle ....Garda Ciarán OShea | 露丝·布莱德利 Ruth Bradley ....Garda Lisa Nolan | 拉塞尔·托维 Russell Tovey ....Dr. Adam Smith | 拉洛·罗迪 Lalor Roddy ....Paddy Barrett | David Pearse ....Brian Maher | Bronagh Galla

下载

温馨提示:如果影片没有字幕,您可以尝试下载安装射手影音(360软件宝库)播放器,播放器将自动匹配下载字幕^_^。

全选
反选
下载选中文件
共选中 个下载

介绍

简介:
◆译 名 掠夺者
◆片 名 Grabbers
◆年 代 2012
◆国 家 英国/爱尔兰
◆类 别 喜剧/科幻/惊悚
◆语 言 英语
◆字 幕 N/A
◆IMDB评分 6.2/10-1643
◆IMDB链接 http://www.imdb.com/title/tt1525366/
◆文件格式 X264 + DTS
◆视频尺寸 1920 x 816
◆文件大小 5.65 GB
◆片 长 93 Mins
◆导 演 乔·怀特 Jon Wright
◆主 演
理查德·柯伊尔 Richard Coyle ....Garda Ciarán O'Shea
露丝·布莱德利 Ruth Bradley ....Garda Lisa Nolan
拉塞尔·托维 Russell Tovey ....Dr. Adam Smith
拉洛·罗迪 Lalor Roddy ....Paddy Barrett
David Pearse ....Brian Maher
Bronagh Gallagher ....Una Maher
Pascal Scott ....Dr. Jim Gleeson
Clelia Murphy ....Irene Murphy
Louis Dempsey ....Tadhg Murphy
Micheál O'Gruagain ....Father Potts
奈德·丹内利 Ned Dennehy ....Declan Cooney
斯图尔特·格拉汉姆 Stuart Graham ....Skipper
Killian Coyle ....Deckhand
Michael Hough ....First Mate
Jonathan Ryan ....Sergeant Kenefick
Barbara Adair ....Mamie
Roz McCutcheon ....Hilda
Nick Chopping ....Daly
Daniel Konieczny ....Polish Labourer
Laurence Doherty ....Islander
Kim Moylan ....Islander
Darran Watt ....Local Man
影片介绍
奥谢是个英俊潇洒的爱尔兰小民警,他每天的工作就是到辖区内的酒吧里巡逻,每天和他打交道的不是本地酒鬼就是不知从那冒出来的古怪人士。直到一天,他发现了一种貌似巨大章鱼的恶心外星生物正准备大肆袭击他的小镇,经过实战发现,酒鬼的血液对外星人来说是万能毒药,于是乎,小民警奥谢想出了一条绝世妙计:把全镇人灌醉……
代码General
Unique ID           : 199694705260910358368678612525138655502 (0x963BCD1F5C042600A151E6A92685390E)
Complete name           : S:HD MoviesGrabbers.2012.1080p.BluRay.x264.ENCOUNTERS.mkv
Format             : Matroska
Format version         : Version 2
File size           : 5.65 GiB
Duration           : 1h 33mn
Overall bit rate         : 8 624 Kbps
Encoded date           : UTC 2012-11-24 11:46:59
Writing application         : mkvmerge v5.1.0 ('And so it goes') built on Nov 28 2011 23:58:28
Writing library         : libebml v1.2.3 + libmatroska v1.3.0
Video
ID             : 1
Format             : AVC
Format/Info           : Advanced Video Codec
Format profile         : High@L4.1
Format settings, CABAC       : Yes
Format settings, ReFrames       : 5 frames
Muxing mode           : Header stripping
Codec ID           : V_MPEG4/ISO/AVC
Duration           : 1h 33mn
Bit rate           : 6 942 Kbps
Width             : 1 920 pixels
Height             : 816 pixels
Display aspect ratio       : 2.35:1
Frame rate           : 24.000 fps
Color space           : YUV
Chroma subsampling         : 4:2:0
Bit depth           : 8 bits
Scan type           : Progressive
Bits/(Pixel*Frame)         : 0.185
Stream size           : 4.55 GiB (81%)
Writing library         : x264 core 129 r2230 1cffe9f
Encoding settings         : cabac=1 / ref=5 / deblock=1:-1:-1 / analyse=0x3:0x133 / me=umh / subme=7 / psy=1 / psy_rd=1.00:0.15 / mixed_ref=1 / me_range=16 / chroma_me=1 / trellis=1 / 8x8dct=1 / cqm=0 / deadzone=21,11 / fast_pskip=0 / chroma_qp_offset=-3 / threads=9 / lookahead_threads=1 / sliced_threads=0 / nr=0 / decimate=1 / interlaced=0 / bluray_compat=0 / constrained_intra=0 / bframes=3 / b_pyramid=2 / b_adapt=1 / b_bias=0 / direct=1 / weightb=1 / open_gop=0 / weightp=2 / keyint=250 / keyint_min=24 / scenecut=40 / intra_refresh=0 / rc_lookahead=40 / rc=crf / mbtree=1 / crf=20.0 / qcomp=0.60 / qpmin=0 / qpmax=69 / qpstep=4 / ip_ratio=1.40 / aq=1:1.00
Default             : Yes
Forced             : No
Audio
ID             : 2
Format             : DTS
Format/Info           : Digital Theater Systems
Muxing mode           : Header stripping
Codec ID           : A_DTS
Duration           : 1h 33mn
Bit rate mode           : Constant
Bit rate           : 1 510 Kbps
Channel(s)           : 6 channels
Channel positions         : Front: L C R, Side: L R, LFE
Sampling rate           : 48.0 KHz
Bit depth           : 16 bits
Compression mode         : Lossy
Stream size           : 1 013 MiB (18%)
Title             : English
Language           : English
Default             : Yes
Forced             : No

热门电影  ·  本周排行榜