主站:www.xiaohx.net  镜像站:www.xiaohx.org 分享朋友→
电视直播

历史浏览记录

当前位置:主页 > 电影 > 亚洲

完美搭档.Perfect partner.2011.KR.HDRip.1280x720p.x264.AAC-KOOK.[韩语中字]

发布时间:2017-10-12 22:42:09  | 更新时间:2017-10-12 22:42:09

小浣熊 · 下载站(最新地址)
浏览:  次

名称:完美搭档.Perfect partner.2011.KR.HDRip.1280x720p.x264.AAC-KOOK.[韩语中字]
分类:电影 - 亚洲
地区:韩国
语言
发行年代
发布时间:2017年10月12日
更新时间:2017年10月12日

下载

温馨提示:如果影片没有字幕,您可以尝试下载安装射手影音(360软件宝库)播放器,播放器将自动匹配下载字幕^_^。

全选
反选
下载选中文件
共选中 个下载

介绍

完美搭档.Perfect partner.2011.KR.HDRip.1280x720p.x264.AAC-KOOK.[韩语中字]
迅雷影视
最新影视,限制级资源下载
http://www.xunleiyingshi.com 
完美搭档.Perfect partner.2011.KR.HDRip.1280x720p.x264.AAC-KOOK.[韩语中字]

※※※※※※※ 影片信息 ※※※※※※※
◎片   名 ??? ???◎译   名 完美搭档 / 完美拍档 / Perfect Partner◎年   代 2011◎国   家 韩国◎类   别 喜剧 / 情色◎语   言 韩语◎上映日 期 2011-11-17(韩国)◎字   幕 简体字幕/繁体字幕◎IMDB 评分  5.7/10 from 168 users◎豆瓣 评分  5.8/10 from 4636 users◎视频尺 寸  1280x720p◎片   长 2.00.46◎导   演 朴宪洙◎编     剧  朴宪洙◎主   演 金英浩 / 金慧善Hye-seon Kim / 金山浩San-ho Kim / 尹彩伊Chae-yi Yun / 金英勋Yeong-hun Kim


 ◎简  介  曾经是著名剧作家的俊熙(金英浩 饰)已经沉寂了7年之久,这期间,他的日子过得即郁闷又苦逼。在朋友的建议下,他决定通过谈恋爱的方式来重新激发起自己的创作欲望,然而,恋爱是双人运动,他那如花似玉的女学生成了首当其冲的人选。   同时,厨师熙淑(金慧善 饰)也陷入了职业生涯的低谷期,不但对一直都热爱着的事业提不起劲,也再无热情去好好经营生活。就在这悲催的境地里,有人提议一场恋爱或许能够换来新生,灵光一现的熙淑将目光投向了自己年轻单纯的男弟子。然而,这四个人的关系并不如想象的那样简单,当感情脱离了理智的控制,他们该如何收拾这个烂摊子呢?



※※※※※※※ 参数信息 ※※※※※※※


GeneralUnique ID                      : 244457985221456878486067965258430370830 (0xB7E8E5382A33AFFC9FC092017E67540E)
Format                         : MatroskaFormat version                 : Version 4 / Version 2File size                      : 2.66 GiBDuration                       : 2 h 0 minOverall bit rate               : 3 155 kb/sEncoded date                   : UTC 2017-08-27 11:07:38Writing application            : mkvmerge v9.4.2 ('So High') 64bitWriting library                : libebml v1.3.4 + libmatroska v1.4.5Attachments                    : 正式海报1.jpg / msyh.ttf / msyhbd.ttf
VideoID                             : 1Format                         : AVCFormat/Info                    : Advanced Video CodecFormat profile                 : Main@L3.1Format settings, CABAC         : YesFormat settings, ReFrames      : 1 frameFormat settings, GOP           : M=1, N=12Codec ID                       : V_MPEG4/ISO/AVCDuration                       : 2 h 0 minBit rate                       : 3 000 kb/sWidth                          : 1 280 pixelsHeight                         : 720 pixelsDisplay aspect ratio           : 16:9Frame rate mode                : ConstantFrame rate                     : 30.000 FPSColor space                    : YUVChroma subsampling             : 4:2:0Bit depth                      : 8 bitsScan type                      : ProgressiveBits/(Pixel*Frame)             : 0.109Stream size                    : 2.52 GiB (95%)Writing library                : x264 core 125Encoding settings              : cabac=1 / ref=1 / deblock=1:0:0 / analyse=0x1:0x131 / me=hex / subme=6 / psy=1 / psy_rd=1.00:0.00 / mixed_ref=0 / me_range=16 / chroma_me=1 / trellis=0 / 8x8dct=0 / cqm=0 / deadzone=21,11 / fast_pskip=1 / chroma_qp_offset=-2 / threads=2 / lookahead_threads=1 / sliced_threads=0 / nr=0 / decimate=1 / interlaced=0 / bluray_compat=0 / constrained_intra=0 / bframes=0 / weightp=2 / keyint=12 / keyint_min=7 / scenecut=40 / intra_refresh=0 / rc_lookahead=12 / rc=abr / mbtree=1 / bitrate=3000 / ratetol=1.0 / qcomp=0.60 / qpmin=6 / qpmax=51 / qpstep=4 / ip_ratio=1.40 / aq=1:1.00Default                        : YesForced                         : No
AudioID                             : 2Format                         : AACFormat/Info                    : Advanced Audio CodecFormat profile                 : LCCodec ID                       : A_AACDuration                       : 2 h 0 minBit rate                       : 128 kb/sChannel(s)                     : 2 channelsChannel positions              : Front: L RSampling rate                  : 44.1 kHzFrame rate                     : 43.066 FPS (1024 spf)Compression mode               : LossyStream size                    : 111 MiB (4%)Default                        : YesForced                         : No
Text #1ID                             : 3Format                         : ASSCodec ID                       : S_TEXT/ASSCodec ID/Info                  : Advanced Sub Station AlphaDuration                       : 1 h 58 minBit rate                       : 117 b/sCount of elements              : 1168Compression mode               : LosslessStream size                    : 102 KiB (0%)Title                          : 简体字幕Language                       : ChineseDefault                        : YesForced                         : No
Text #2ID                             : 4Format                         : ASSCodec ID                       : S_TEXT/ASSCodec ID/Info                  : Advanced Sub Station AlphaDuration                       : 1 h 58 minBit rate                       : 117 b/sCount of elements              : 1168Compression mode               : LosslessStream size                    : 102 KiB (0%)Title                          : 繁体字幕Language                       : ChineseDefault                        : NoForced                         : No
完美搭档.Perfect partner.2011.KR.HDRip.1280x720p.x264.AAC-KOOK.[韩语中字]

热门电影  ·  本周排行榜